Details for this torrent 

Billions S01 Season 1 720p WebRip ReEnc-DeeJayAhmed
Type:
Other > Other
Files:
27
Size:
4.9 GiB (5262418541 Bytes)
Uploaded:
2016-04-13 00:06:44 GMT
By:
DeeJayPirate VIP
Seeders:
233
Leechers:
81
Comments
0  

Info Hash:
D33B467E45A7699FEB2473304B757207842D927E




(Problems with magnets links are fixed by upgrading your torrent client!)
DeeJayAhmed  
https://www.DeeJayAhmed.com

Keep Seeding!!=)) 
Do Comment On The A/V Quality Considering The Size Of The File..!
Help Me By Donating Bitcoins : 14i1UCWye2SCjoAHR5u6LDswWgAy55dxAv

Video 
ID : 1 
Format : AVC 
Format/Info : Advanced Video Codec 
Format profile : [email protected] 
Format settings, CABAC : Yes 
Format settings, ReFrames : 8 frames 
Codec ID : V_MPEG4/ISO/AVC 
Duration : 59mn 29s 
Bit rate : 948 Kbps 
Width : 1 280 pixels 
Height : 720 pixels 
Display aspect ratio : 16:9 
Frame rate mode : Constant 
Frame rate : 23.976 (24000/1001) fps 
Color space : YUV 
Chroma subsampling : 4:2:0 
Bit depth : 8 bits 
Scan type : Progressive 
Bits/(Pixel*Frame) : 0.043 
Stream size : 403 MiB (94%) 
Default : Yes 
Forced : No 

Audio 
ID : 2 
Format : AAC 
Format/Info : Advanced Audio Codec 
Format profile : HE-AAC / LC 
Codec ID : A_AAC 
Duration : 59mn 30s 
Bit rate : 64.0 Kbps 
Channel(s) : 2 channels 
Channel positions : Front: L R 
Sampling rate : 48.0 KHz / 24.0 KHz 
Frame rate : 23.438 fps (1024 spf) 
Compression mode : Lossy 
Stream size : 27.2 MiB (6%) 
Language : English 
Default : Yes 
Forced : No